Download Gangster VIP 1968 480p x264-mSD





COVER:
http://icezap.com/upload/small/2016/05/08/572f00ec59cf6.jpg
ACTORS:
Tetsuya Watari, Chieko Matsubara, Mitsuo Hamada, Tamio Kawachi, Ky├┤suke Machida, Kayo Matsuo,
RELEASED:
May 1968
IMDB: http://www.imdb.com/title/tt0062850/
Size: 552716680 bytes (527.11 MiB), duration: 01:33:26, avg.bitrate: 789 kb/s
Audio: mp3, 48000 Hz, mono (jpn)
Video: h264, yuv420p, 640×480, 23.98 fps(r) => 1146×480
Subtitles: eng
SCREENS:
http://icezap.com/img-572f00ec9b38b.html
http://icezap.com/img-572f00eca03ad.html
DOWNLOAD AND ENJOY.
KEEP IT FOR LONG SEEDING TO HELP OTHERS

Thanks to : mSD
Movie Share
https://www.facebook.com/pages/Idlelive/320894884670844

May 8, 2016

Posted In: Uncategorized

Tags:

Download 24 (2016) [TAMIL – DVDSCR – x264 – AAC – 1.9GB] – MAZE





24 (2016) [TAMIL – DVDSCR – x264 – AAC – 1.9GB] – MAZE
Code:
General
Unique ID : 214859740301049835111673363125932110898 (0xA1A47B13ABC6D975B55874A45743B432)
Complete name : 24 (2016) [TAMIL – DVDSCR – x264 – AAC – 1.9GB] – MAZE.mkv
Format : Matroska

Format version : Version 4 / Version 2
File size : 1.90 GiB
Duration : 2h 43mn
Overall bit rate : 1 663 Kbps
Movie name : MAZERelease
Encoded date : UTC 2016-05-08 09:31:18
Writing application : mkvmerge v8.2.0 (‘World of Adventure’) 64bit
Writing library : libebml v1.3.1 + libmatroska v1.4.2
Video
ID : 1
Format : AVC
Format/Info : Advanced Video Codec
Format profile : [email protected]/* */
Format settings, CABAC : Yes
Format settings, ReFrames : 4 frames

Codec ID : V_MPEG4/ISO/AVC

Duration : 2h 43mn
Bit rate : 1 500 Kbps
Width : 680 pixels
Height : 262 pixels
Display aspect ratio : 2.595
Frame rate mode : Constant
Frame rate : 29.970 (30000/1001) fps
Color space : YUV
Chroma subsampling : 4:2:0
Bit depth : 8 bits
Scan type : Progressive
Bits/(Pixel*Frame) : 0.281
Stream size : 1.71 GiB (90%)
Title : MAZERelease
Writing library : x264 core 142 r2479 dd79a61
Language : Tamil
Default : Yes
Forced : No
Color range : Limited
Color primaries : BT.601 NTSC
Transfer characteristics : BT.709
Matrix coefficients : BT.601
Audio
ID : 2

Format : AAC
Format/Info : Advanced Audio Codec
Format profile : LC
Codec ID : A_AAC
Duration : 2h 43mn
Bit rate : 160 Kbps
Channel(s) : 2 channels
Channel positions : Front: L R
Sampling rate : 48.0 KHz
Frame rate : 46.875 fps (1024 spf)
Compression mode : Lossy
Delay relative to video : -67ms
Stream size : 187 MiB (10%)
Title : MAZERelease

Language : Tamil
Default : Yes
Forced : No
Source Credits To Sri Ram
Please share with proper credit (MAZERelease)
Thanks for Downloading

May 8, 2016

Posted In: Uncategorized

Tags:

Download TMZ.on.TV.2016.05.06.(Eng.Subs).SDTV.x264-[2Maverick]

SOURCE:
This comes from a (SD) STANDARD DEFINITION source – non HD (as that’s what I have).
::::::::::::::::::::::::::::::::::::::::::::::
COMMENTS:
Your constructive comments are appreciated.
::::::::::::::::::::::::::::::::::::::::::::::
DETAILS:
Spoken: English
Subtitles: English
Codec: H264 – MPEG-4 AVC

Continue reading Download TMZ.on.TV.2016.05.06.(Eng.Subs).SDTV.x264-[2Maverick]

May 8, 2016

Posted In: Uncategorized

Tags:

Download VIkings S1 – S3 (S1 + S2 + S3) Extended 720p 5.1 Channels Blu-Ray x265 HEVC [Lucifer22]

VIkings S1 – S3 Blu-Ray 720p
============================================
Story:
The world of the Vikings is brought to life through the journey of Ragnar Lothbrok, the first Viking to emerge from Norse legend and onto the pages of history – a man on the edge of myth.

Continue reading Download VIkings S1 – S3 (S1 + S2 + S3) Extended 720p 5.1 Channels Blu-Ray x265 HEVC [Lucifer22]

May 8, 2016

Posted In: Uncategorized

Tags: